Zone Telechargement

Dernières actualités du site :

21/10 - Salma's Big Wish New!
22/10 - Superstore Saison 5 Episode 3 New!
21/10 - Salma's Big Wish New!
Prospect
Qualité HDLight 1080p MULTI

Prospect
Télécharger Prospect en HD



Origine du film :U.S.A.
Réalisateur(s) :Zeek Earl, Christopher Caldwell
Acteur(s) :Sophie Thatcher, Pedro Pascal, Jay Duplass
Genre :Science fiction,
Titre Original :Prospect



Une adolescente et son père parcourent une forêt toxique située sur une lune lointaine à la recherche de précieux minéraux. Mais ils ne sont pas les seuls et leur quête se transforme en une lutte désespérée pour survivre. NFO Show/hide text General Unique ID : 217934473794099251474640786487736278157 (0xA3F4A7246AD0C6B11FF2BF38AB6C1C8D) Complete name : Prospect.2018.MULTi.1080p.BluRay.Light.x264.AC3-ACOOL.WwW.Zone-Telechargement.Net.mkv Format : Matroska Format version : Version 4 / Version 2 File size : 2.45 GiB Duration : 1 h 40 min Overall bit rate : 3 497 kb/s Movie name : Prospect Encoded date : UTC 2019-09-15 21:35:55 Writing application : mkvmerge v25.0.0 ('Prog Noir') 64-bit Writing library : libebml v1.3.6 + libmatroska v1.4.9 Video ID : 1 Format : AVC Format/Info : Advanced Video Codec Format profile : [email protected] Format settings : CABAC / 4 Ref Frames Format settings, CABAC : Yes Format settings, ReFrames : 4 frames Codec ID : V_MPEG4/ISO/AVC Duration : 1 h 40 min Bit rate : 2 600 kb/s Width : 1 920 pixels Height : 1 040 pixels Display aspect ratio : 1.889 Original display aspect rat : 1.890 Frame rate mode : Constant Frame rate : 23.976 (24000/1001) FPS Color space : YUV Chroma subsampling : 4:2:0 Bit depth : 8 bits Scan type : Progressive Bits/(Pixel*Frame) : 0.054 Stream size : 1.82 GiB (74%) Writing library : x264 core 155 r2901 7d0ff22 Encoding settings : cabac=1 / ref=1 / deblock=1:0:0 / analyse=0x3:0x113 / me=hex / subme=2 / psy=1 / psy_rd=1.00:0.00 / mixed_ref=0 / me_range=16 / chroma_me=1 / trellis=0 / 8x8dct=1 / cqm=0 / deadzone=21,11 / fast_pskip=1 / chroma_qp_offset=0 / threads=32 / lookahead_threads=8 / sliced_threads=0 / nr=0 / decimate=1 / interlaced=0 / bluray_compat=0 / constrained_intra=0 / bframes=3 / b_pyramid=2 / b_adapt=1 / b_bias=0 / direct=1 / weightb=1 / open_gop=0 / weightp=1 / keyint=240 / keyint_min=24 / scenecut=40 / intra_refresh=0 / rc_lookahead=10 / rc=2pass / mbtree=1 / bitrate=2600 / ratetol=1.0 / qcomp=0.60 / qpmin=0 / qpmax=69 / qpstep=4 / cplxblur=20.0 / qblur=0.5 / vbv_maxrate=62500 / vbv_bufsize=78125 / nal_hrd=none / filler=0 / ip_ratio=1.40 / aq=1:1.00 Default : Yes Forced : No Color range : Limited Color primaries : BT.709 Transfer characteristics : BT.709 Matrix coefficients : BT.709 Audio #1 ID : 2 Format : AC-3 Format/Info : Audio Coding 3 Codec ID : A_AC3 Duration : 1 h 40 min Bit rate mode : Constant Bit rate : 448 kb/s Channel(s) : 6 channels Channel positions : Front: L C R, Side: L R, LFE Sampling rate : 48.0 kHz Frame rate : 31.250 FPS (1536 SPF) Bit depth : 16 bits Compression mode : Lossy Stream size : 322 MiB (13%) Title : French AC3 5.1 448kb/s Language : French Service kind : Complete Main Default : Yes Forced : No Audio #2 ID : 3 Format : AC-3 Format/Info : Audio Coding 3 Codec ID : A_AC3 Duration : 1 h 40 min Bit rate mode : Constant Bit rate : 448 kb/s Channel(s) : 6 channels Channel positions : Front: L C R, Side: L R, LFE Sampling rate : 48.0 kHz Frame rate : 31.250 FPS (1536 SPF) Bit depth : 16 bits Compression mode : Lossy Stream size : 322 MiB (13%) Title : English AC3 5.1 448kb/s Language : English Service kind : Complete Main Default : No Forced : No Text ID : 4 Format : UTF-8 Codec ID : S_TEXT/UTF8 Codec ID/Info : UTF-8 Plain Text Duration : 1 h 37 min Bit rate : 26 b/s Count of elements : 683 Stream size : 19.3 KiB (0%) Title : FULL FR Language : French Default : No Forced : No Menu 00:00:00.000 : fr:(01)00:00:00:000 00:08:18.998 : fr:(02)00:08:18:998 00:15:45.527 : fr:(03)00:15:45:527 00:21:48.223 : fr:(04)00:21:48:223 00:29:18.173 : fr:(05)00:29:18:173 00:39:12.933 : fr:(06)00:39:12:933 00:47:29.137 : fr:(07)00:47:29:137 00:54:40.443 : fr:(08)00:54:40:443 01:02:54.645 : fr:(09)01:02:54:645 01:09:27.413 : fr:(10)01:09:27:413 01:20:44.381 : fr:(11)01:20:44:381 01:31:53.883 : fr:(12)01:31:53:883




Qualité/Format/Langue : HDLight 1080p MULTI






Prospect.2018.MULTi.1080p.BluRay.Light.x264.AC3-ACOOL 2,5 Go

Liens De Téléchargement :


3.6
Biopic,Drame,Sport event,
2002-02-27
2.7
Epouvante-horreur,
2019-07-10
Publié : 16-09-2019, 01:12


Commentaires:


Information
Vous devez vous connectez ou vous inscrire pour participer aux commentaires.
Il n'y a pas encore de commentaire sur cette fiche.

Zone-Telechargement n'héberge aucun fichier. La loi francaise vous autorise à telecharger un fichier seulement si vous en possedez l'original. Ni Zone-Telechargement, ni nos hebergeurs, ni personne ne pourront êtres tenu responsables d'une mauvaise utilisation de ce site.