Zone Telechargement

Dernières actualités du site :

21/10 - Salma's Big Wish New!
22/10 - Superstore Saison 5 Episode 3 New!
21/10 - Salma's Big Wish New!
Step Up Year of the dance
Qualité WEB-DL 720p FRENCH

Step Up Year of the dance
Télécharger Step Up Year of the dance en HD



Origine du film :U.S.A.
Réalisateur(s) :Ron Yuan
Acteur(s) :Meiqi Meng, Yixuan Zhou, Jingxing Huang
Genre :Comédie musicale,Romance,Drame,
Titre Original :Step Up China
Note spectateur : - 3.1/5



Un jeune délinquant qui sort de prison s'associe avec le fils d'un riche industriel pour monter un crew de Street Dance. Leurs origines les opposent mais leur passion les réunit. A force de travail et de talent, ils parviennent à se qualifier pour une grande compétition internationale où ils espèrent défier les "phantoms", le meilleur crew du monde. NFO Show/hide text General Unique ID : 292454183264267290344438755877999677680 (0xDC04A07BEDA8082CF0F610CA85E910F0) Complete name : G:Step.Up.China.2018.FRENCH.720p.WEB.H264-PREUMS.Zone-Temechargement.NET.mkv Format : Matroska Format version : Version 4 File size : 1.32 GiB Duration : 1 h 30 min Overall bit rate : 2 100 kb/s Movie name : Step Up Year of the Dance (China) - 2018 by PREUMS Encoded date : UTC 2019-09-15 21:13:19 Writing application : mkvmerge v36.0.0 ('Is That Jazz?') 64-bit Writing library : libebml v1.3.9 + libmatroska v1.5.2 Video ID : 1 Format : AVC Format/Info : Advanced Video Codec Format profile : [email protected] Format settings : CABAC / 4 Ref Frames Format settings, CABAC : Yes Format settings, RefFrames : 4 frames Codec ID : V_MPEG4/ISO/AVC Duration : 1 h 30 min Bit rate : 2 000 kb/s Width : 1 280 pixels Height : 536 pixels Display aspect ratio : 2.40:1 Frame rate mode : Constant Frame rate : 23.976 (24000/1001) FPS Color space : YUV Chroma subsampling : 4:2:0 Bit depth : 8 bits Scan type : Progressive Bits/(Pixel*Frame) : 0.122 Stream size : 1.24 GiB (94%) Title : PREUMS Writing library : x264 core 157 r2932 303c484 Encoding settings : cabac=1 / ref=3 / deblock=1:0:0 / analyse=0x3:0x113 / me=hex / subme=7 / psy=1 / psy_rd=1.00:0.00 / mixed_ref=1 / me_range=16 / chroma_me=1 / trellis=1 / 8x8dct=1 / cqm=0 / deadzone=21,11 / fast_pskip=1 / chroma_qp_offset=-2 / threads=17 / lookahead_threads=2 / sliced_threads=0 / nr=0 / decimate=1 / interlaced=0 / bluray_compat=0 / constrained_intra=0 / bframes=3 / b_pyramid=2 / b_adapt=1 / b_bias=0 / direct=1 / weightb=1 / open_gop=0 / weightp=2 / keyint=250 / keyint_min=23 / scenecut=40 / intra_refresh=0 / rc_lookahead=40 / rc=abr / mbtree=1 / bitrate=2000 / ratetol=1.0 / qcomp=0.60 / qpmin=0 / qpmax=69 / qpstep=4 / ip_ratio=1.40 / aq=1:1.00 Language : English Default : Yes Forced : No Audio ID : 2 Format : AAC LC Format/Info : Advanced Audio Codec Low Complexity Codec ID : A_AAC-2 Duration : 1 h 30 min Bit rate : 129 kb/s Channel(s) : 2 channels Channel layout : L R Sampling rate : 48.0 kHz Frame rate : 46.875 FPS (1024 SPF) Compression mode : Lossy Stream size : 82.9 MiB (6%) Title : French 2.0 Language : French Default : Yes Forced : No Text ID : 3 Format : UTF-8 Codec ID : S_TEXT/UTF8 Codec ID/Info : UTF-8 Plain Text Duration : 1 h 24 min Bit rate : 0 b/s Count of elements : 6 Stream size : 288 Bytes (0%) Title : Forced Language : French Default : Yes Forced : No Menu 00:00:00.000 : :Chapitre 01 00:09:00.000 : :Chapitre 02 00:18:00.000 : :Chapitre 03 00:27:00.000 : :Chapitre 04 00:36:00.000 : :Chapitre 05 00:45:00.000 : :Chapitre 06 00:54:00.000 : :Chapitre 07 01:03:00.000 : :Chapitre 08 01:12:00.000 : :Chapitre 09 01:21:00.000 : :Chapitre 10




Qualité/Format/Langue : WEB-DL 720p FRENCH






Step.Up.China.2018.FRENCH.720p.WEB.H264-PREUMS 1,3 Go

Liens De Téléchargement :


3.6
Biopic,Drame,Sport event,
2002-02-27
2.7
Epouvante-horreur,
2019-07-10
Publié : 16-09-2019, 10:54


Commentaires:


Information
Vous devez vous connectez ou vous inscrire pour participer aux commentaires.
Il n'y a pas encore de commentaire sur cette fiche.

Zone-Telechargement n'héberge aucun fichier. La loi francaise vous autorise à telecharger un fichier seulement si vous en possedez l'original. Ni Zone-Telechargement, ni nos hebergeurs, ni personne ne pourront êtres tenu responsables d'une mauvaise utilisation de ce site.