Zone Telechargement

Dernières actualités du site :

21/10 - Salma's Big Wish New!
22/10 - Superstore Saison 5 Episode 3 New!
21/10 - Salma's Big Wish New!
Realive
Qualité HDLight 720p FRENCH

Realive
Télécharger Realive en HD



Origine du film :Espagne
Réalisateur(s) :Mateo Gil
Acteur(s) :Tom Hughes, Oona Chaplin, Charlotte Le Bon
Genre :Science fiction,Drame,
Année de sortie :2018-06-06
Titre Original :Realive



Marc est un jeune trentenaire à qui tout réussit. Lorsqu'il apprend qu'il ne lui reste plus qu'un an à vivre, il prend une décision radicale : cryogéniser son corps dans l'espoir qu'on puisse le guérir dans le futur. A son réveil, 60 ans plus tard, sans repères et séparé de ses proches, Marc découvre un monde dans lequel il est devenu un étranger. NFO Show/hide text General Unique ID : 317315897753210609769231631899441181357 (0xEEB8D1A57B5AA67946340D5964DB32AD) Complete name : Realive.2016.FRENCH.720p.BluRay.Light.x264.AC3-ACOOL.WwW.Zone-Telechargement.Net.mkv Format : Matroska Format version : Version 4 / Version 2 File size : 1.54 GiB Duration : 1 h 47 min Overall bit rate : 2 048 kb/s Movie name : Realive Encoded date : UTC 2019-09-16 22:29:52 Writing application : mkvmerge v25.0.0 ('Prog Noir') 64-bit Writing library : libebml v1.3.6 + libmatroska v1.4.9 Video ID : 1 Format : AVC Format/Info : Advanced Video Codec Format profile : [email protected] Format settings : CABAC / 4 Ref Frames Format settings, CABAC : Yes Format settings, ReFrames : 4 frames Codec ID : V_MPEG4/ISO/AVC Duration : 1 h 47 min Bit rate : 1 600 kb/s Width : 1 280 pixels Height : 536 pixels Display aspect ratio : 2.40:1 Frame rate mode : Constant Frame rate : 24.000 FPS Color space : YUV Chroma subsampling : 4:2:0 Bit depth : 8 bits Scan type : Progressive Bits/(Pixel*Frame) : 0.097 Stream size : 1.20 GiB (78%) Writing library : x264 core 155 r2901 7d0ff22 Encoding settings : cabac=1 / ref=1 / deblock=1:0:0 / analyse=0x3:0x113 / me=hex / subme=2 / psy=1 / psy_rd=1.00:0.00 / mixed_ref=0 / me_range=16 / chroma_me=1 / trellis=0 / 8x8dct=1 / cqm=0 / deadzone=21,11 / fast_pskip=1 / chroma_qp_offset=0 / threads=17 / lookahead_threads=4 / sliced_threads=0 / nr=0 / decimate=1 / interlaced=0 / bluray_compat=0 / constrained_intra=0 / bframes=3 / b_pyramid=2 / b_adapt=1 / b_bias=0 / direct=1 / weightb=1 / open_gop=0 / weightp=1 / keyint=240 / keyint_min=24 / scenecut=40 / intra_refresh=0 / rc_lookahead=10 / rc=2pass / mbtree=1 / bitrate=1600 / ratetol=1.0 / qcomp=0.60 / qpmin=0 / qpmax=69 / qpstep=4 / cplxblur=20.0 / qblur=0.5 / vbv_maxrate=62500 / vbv_bufsize=78125 / nal_hrd=none / filler=0 / ip_ratio=1.40 / aq=1:1.00 Default : Yes Forced : No Color range : Limited Color primaries : BT.709 Transfer characteristics : BT.709 Matrix coefficients : BT.709 Audio ID : 2 Format : AC-3 Format/Info : Audio Coding 3 Codec ID : A_AC3 Duration : 1 h 47 min Bit rate mode : Constant Bit rate : 448 kb/s Channel(s) : 6 channels Channel positions : Front: L C R, Side: L R, LFE Sampling rate : 48.0 kHz Frame rate : 31.250 FPS (1536 SPF) Bit depth : 16 bits Compression mode : Lossy Stream size : 344 MiB (22%) Title : French AC3 5.1 448kb/s Language : French Service kind : Complete Main Default : Yes Forced : No Text ID : 3 Format : UTF-8 Codec ID : S_TEXT/UTF8 Codec ID/Info : UTF-8 Plain Text Duration : 1 h 39 min Bit rate : 59 b/s Count of elements : 1120 Stream size : 43.4 KiB (0%) Title : FULL FR Language : French Default : No Forced : No Menu 00:00:00.000 : :Chapter 01 00:09:09.600 : :Chapter 02 00:17:36.000 : :Chapter 03 00:28:15.360 : :Chapter 04 00:35:28.800 : :Chapter 05 00:43:34.560 : :Chapter 06 00:51:42.240 : :Chapter 07 00:57:34.080 : :Chapter 08 01:08:00.480 : :Chapter 09 01:17:28.800 : :Chapter 10 01:29:57.600 : :Chapter 11 01:37:11.520 : :Chapter 12




Qualité/Format/Langue : HDLight 720p FRENCH






Realive.2016.FRENCH.720p.BluRay.Light.x264.AC3-ACOOL 1,5 Go

Liens De Téléchargement :


3.6
Biopic,Drame,Sport event,
2002-02-27
2.7
Epouvante-horreur,
2019-07-10
Publié : 17-09-2019, 03:06


Commentaires:


Information
Vous devez vous connectez ou vous inscrire pour participer aux commentaires.
Il n'y a pas encore de commentaire sur cette fiche.

Zone-Telechargement n'héberge aucun fichier. La loi francaise vous autorise à telecharger un fichier seulement si vous en possedez l'original. Ni Zone-Telechargement, ni nos hebergeurs, ni personne ne pourront êtres tenu responsables d'une mauvaise utilisation de ce site.