Zone Telechargement

Dernières actualités du site :

21/10 - Salma's Big Wish New!
22/10 - Superstore Saison 5 Episode 3 New!
21/10 - Salma's Big Wish New!
Annabelle – La Maison Du Mal
Qualité HDLight 1080p MULTI

Annabelle – La Maison Du Mal
Télécharger Annabelle – La Maison Du Mal en HD



Origine du film :U.S.A.
Réalisateur(s) :Gary Dauberman
Acteur(s) :Mckenna Grace, Madison Iseman, Katie Sarife
Genre :Epouvante-horreur,
Année de sortie :2019-07-10
Titre Original :Annabelle Comes Home
Note spectateur : - 2.7/5



Déterminés à mettre Annabelle hors d'état de nuire, les démonologues Ed et Lorraine Warren enferment la poupée démoniaque dans leur "pièce des souvenirs", en prenant soin de la placer derrière une vitre sacrée et de solliciter la bénédiction d'un prêtre. Mais Annabelle réveille les esprits maléfiques qui l'entourent... FRENCH VFQNFO Show/hide text General Unique ID : 107118299574025441525006573670706414769 (0x50963BEC488116928F5941AC6E0784B1) Complete name : G:Annabelle.Comes.Home.2019.MULTI.1080p.HDRip.x264.AC3-DEUXIO.Zone-Telechargement.NET.mkv Format : Matroska Format version : Version 4 File size : 1.69 GiB Duration : 1 h 46 min Overall bit rate : 2 276 kb/s Encoded date : UTC 2019-09-17 18:58:19 Writing application : mkvmerge v36.0.0 ('Is That Jazz?') 64-bit Writing library : libebml v1.3.9 + libmatroska v1.5.2 / Lavf58.27.100 Comment : GalaxyRG - Annabelle.Comes.Home.2019.1080p.WEBRip.1400MB.DD5.1.x264-GalaxyRG Video ID : 1 Format : AVC Format/Info : Advanced Video Codec Format profile : [email protected] Format settings : CABAC / 4 Ref Frames Format settings, CABAC : Yes Format settings, RefFrames : 4 frames Codec ID : V_MPEG4/ISO/AVC Duration : 1 h 46 min Bit rate : 1 571 kb/s Width : 1 920 pixels Height : 804 pixels Display aspect ratio : 2.40:1 Frame rate mode : Variable Frame rate : 23.976 FPS Color space : YUV Chroma subsampling : 4:2:0 Bit depth : 8 bits Scan type : Progressive Bits/(Pixel*Frame) : 0.042 Stream size : 1.16 GiB (69%) Writing library : x264 core 148 r2748 97eaef2 Encoding settings : cabac=1 / ref=2 / deblock=1:0:0 / analyse=0x3:0x113 / me=hex / subme=4 / psy=1 / psy_rd=1.00:0.00 / mixed_ref=0 / me_range=16 / chroma_me=1 / trellis=1 / 8x8dct=1 / cqm=0 / deadzone=21,11 / fast_pskip=1 / chroma_qp_offset=0 / threads=6 / lookahead_threads=1 / sliced_threads=0 / nr=0 / decimate=1 / interlaced=0 / bluray_compat=0 / constrained_intra=0 / bframes=3 / b_pyramid=2 / b_adapt=1 / b_bias=0 / direct=1 / weightb=1 / open_gop=0 / weightp=1 / keyint=250 / keyint_min=23 / scenecut=40 / intra_refresh=0 / rc_lookahead=20 / rc=2pass / mbtree=1 / bitrate=1571 / ratetol=1.0 / qcomp=0.60 / qpmin=0 / qpmax=69 / qpstep=4 / cplxblur=20.0 / qblur=0.5 / ip_ratio=1.40 / aq=1:1.00 Language : English Default : Yes Forced : No Audio #1 ID : 2 Format : AC-3 Format/Info : Audio Coding 3 Commercial name : Dolby Digital Codec ID : A_AC3 Duration : 1 h 46 min Bit rate mode : Constant Bit rate : 384 kb/s Channel(s) : 6 channels Channel layout : L R C LFE Ls Rs Sampling rate : 48.0 kHz Frame rate : 31.250 FPS (1536 SPF) Bit depth : 16 bits Compression mode : Lossy Stream size : 291 MiB (17%) Title : French VFQ AC3 Language : French Service kind : Complete Main Default : Yes Forced : No Audio #2 ID : 3 Format : AC-3 Format/Info : Audio Coding 3 Commercial name : Dolby Digital Codec ID : A_AC3 Duration : 1 h 46 min Bit rate mode : Constant Bit rate : 320 kb/s Channel(s) : 6 channels Channel layout : L R C LFE Ls Rs Sampling rate : 48.0 kHz Frame rate : 31.250 FPS (1536 SPF) Bit depth : 16 bits Compression mode : Lossy Stream size : 243 MiB (14%) Title : english 5.1 AC3 Writing library : Lavc58.48.101 ac3 Language : English Service kind : Complete Main Default : No Forced : No Text #1 ID : 4 Format : UTF-8 Codec ID : S_TEXT/UTF8 Codec ID/Info : UTF-8 Plain Text Duration : 32 s 32 ms Bit rate : 104 b/s Count of elements : 8 Stream size : 419 Bytes (0%) Title : Forced Language : French Default : Yes Forced : No Text #2 ID : 5 Format : UTF-8 Codec ID : S_TEXT/UTF8 Codec ID/Info : UTF-8 Plain Text Duration : 1 h 45 min Bit rate : 25 b/s Count of elements : 828 Stream size : 19.3 KiB (0%) Title : French Language : French Default : No Forced : No Menu 00:00:00.000 : :1 00:07:58.000 : :2 00:15:34.000 : :3 00:24:02.000 : :4 00:32:57.000 : :5 00:43:00.000 : :6 00:52:29.000 : :7 01:02:07.000 : :8 01:06:14.000 : :9 01:15:05.000 : :10 01:21:45.000 : :11 01:30:22.000 : :12 01:39:58.000 : :13




Qualité/Format/Langue : HDLight 1080p MULTI






Annabelle.Comes.Home.2019.MULTI.1080p.HDRip.x264.AC3-DEUXIO 1,7 Go

Liens De Téléchargement :


2
Fantastique,Action,
2019-05-08
3.1
Action,Epouvante-horreur,Comédie,
16 octobre 2019
Science fiction,Drame,
2018-06-06
Publié : 17-09-2019, 22:24


Commentaires:


Information
Vous devez vous connectez ou vous inscrire pour participer aux commentaires.
Il n'y a pas encore de commentaire sur cette fiche.

Zone-Telechargement n'héberge aucun fichier. La loi francaise vous autorise à telecharger un fichier seulement si vous en possedez l'original. Ni Zone-Telechargement, ni nos hebergeurs, ni personne ne pourront êtres tenu responsables d'une mauvaise utilisation de ce site.