Zone Telechargement

Dernières actualités du site :

23/10 - Benjamin New!
23/10 - Arrow Saison 8 Episode 2 New!
23/10 - Benjamin New!
Inside Man: Most Wanted
Qualité BRRIP VOSTFR

Inside Man: Most Wanted
Télécharger Inside Man: Most Wanted en HD



Origine du film :U.S.A.
Réalisateur(s) :M.J. Bassett
Acteur(s) :Aml Ameen, Rhea Seehorn, Roxanne McKee
Genre :Action,Thriller,
Titre Original :Inside Man: Most Wanted
Note spectateur : - 3.5/5



Une bande organisée décide de cambrioler la Réserve fédérale des Etats-Unis. Durant un siège de plus de dix heures, un négociateur de la police de New York en otage et un agent fédéral unissent leur force pour libérer les captifs et faire échouer le plan de la bande d'escrocs. NFO x264: Show/hide text General Unique ID : 207987263949480802631676529160838278250 (0x9C78E3D5049FC7C78183E6E0A8B16C6A) Complete name : Inside.Man.Most.Wanted.2019.VOSTFR.BRRip.x264-ACOOL.WwW.Zone-Telechargement.Net.mkv Format : Matroska Format version : Version 4 / Version 2 File size : 725 MiB Duration : 1 h 45 min Overall bit rate : 958 kb/s Movie name : Inside Man: Most Wanted Encoded date : UTC 2019-09-18 18:15:05 Writing application : mkvmerge v25.0.0 ('Prog Noir') 64-bit Writing library : libebml v1.3.6 + libmatroska v1.4.9 Video ID : 1 Format : AVC Format/Info : Advanced Video Codec Format profile : [email protected] Format settings : CABAC / 5 Ref Frames Format settings, CABAC : Yes Format settings, ReFrames : 5 frames Codec ID : V_MPEG4/ISO/AVC Duration : 1 h 45 min Bit rate : 830 kb/s Width : 720 pixels Height : 360 pixels Display aspect ratio : 2.000 Frame rate mode : Constant Frame rate : 23.976 (24000/1001) FPS Color space : YUV Chroma subsampling : 4:2:0 Bit depth : 8 bits Scan type : Progressive Bits/(Pixel*Frame) : 0.134 Stream size : 628 MiB (87%) Writing library : x264 core 158 r2984 3759fcb Encoding settings : cabac=1 / ref=5 / deblock=1:-3:-3 / analyse=0x3:0x113 / me=hex / subme=8 / psy=1 / psy_rd=1.00:0.15 / mixed_ref=1 / me_range=16 / chroma_me=1 / trellis=2 / 8x8dct=1 / cqm=0 / deadzone=21,11 / fast_pskip=1 / chroma_qp_offset=-3 / threads=11 / lookahead_threads=1 / sliced_threads=0 / nr=0 / decimate=1 / interlaced=0 / bluray_compat=0 / constrained_intra=0 / bframes=3 / b_pyramid=2 / b_adapt=1 / b_bias=0 / direct=3 / weightb=1 / open_gop=0 / weightp=2 / keyint=250 / keyint_min=23 / scenecut=40 / intra_refresh=0 / rc_lookahead=50 / rc=crf / mbtree=1 / crf=19.0 / qcomp=0.60 / qpmin=0 / qpmax=69 / qpstep=4 / vbv_maxrate=17500 / vbv_bufsize=17500 / crf_max=0.0 / nal_hrd=none / filler=0 / ip_ratio=1.40 / aq=1:0.60 Default : Yes Forced : No Color range : Limited Matrix coefficients : BT.709 Audio ID : 2 Format : AAC Format/Info : Advanced Audio Codec Format profile : LC Codec ID : A_AAC-2 Duration : 1 h 45 min Bit rate : 125 kb/s Channel(s) : 2 channels Channel positions : Front: L R Sampling rate : 48.0 kHz Frame rate : 46.875 FPS (1024 SPF) Compression mode : Lossy Delay relative to video : 20 ms Stream size : 94.8 MiB (13%) Title : English AAC 2.0 Language : English Default : Yes Forced : No Text #1 ID : 3 Format : UTF-8 Codec ID : S_TEXT/UTF8 Codec ID/Info : UTF-8 Plain Text Duration : 1 h 44 min Bit rate : 57 b/s Count of elements : 1452 Stream size : 44.2 KiB (0%) Title : FULL FR SRT Language : French Default : Yes Forced : Yes Text #2 ID : 4 Format : ASS Codec ID : S_TEXT/ASS Codec ID/Info : Advanced Sub Station Alpha Duration : 1 h 44 min Bit rate : 98 b/s Count of elements : 1452 Compression mode : Lossless Stream size : 75.9 KiB (0%) Title : FULL FR ASS Language : French Default : No Forced : No Menu 00:00:00.000 : en:00:00:00.000 00:07:20.190 : en:00:07:20.190 00:12:18.947 : en:00:12:18.947 00:18:31.319 : en:00:18:31.319 00:24:28.342 : en:00:24:28.342 00:30:21.403 : en:00:30:21.403 00:34:20.475 : en:00:34:20.475 00:40:11.576 : en:00:40:11.576 00:45:36.150 : en:00:45:36.150 00:50:35.199 : en:00:50:35.199 00:54:39.401 : en:00:54:39.401 00:58:05.982 : en:00:58:05.982 01:01:56.546 : en:01:01:56.546 01:06:57.555 : en:01:06:57.555 01:13:02.169 : en:01:13:02.169 01:15:33.696 : en:01:15:33.696 01:21:11.533 : en:01:21:11.533 01:27:34.374 : en:01:27:34.374 01:33:13.004 : en:01:33:13.004 01:40:59.845 : en:01:40:59.845




Qualité/Format/Langue : BRRIP VOSTFR






Inside.Man.Most.Wanted.2019.VOSTFR.BRRip.XviD.AC3-ACOOL 1,4 Go

Liens De Téléchargement :


3.3
Epouvante-horreur,
2019-07-31
3.4
Comédie dramatique,Aventure,
2.7
Drame,
2015-10-07
2.2
Romance,Biopic,
2016-08-31
Publié : 18-09-2019, 23:14


Commentaires:


Information
Vous devez vous connectez ou vous inscrire pour participer aux commentaires.
Il n'y a pas encore de commentaire sur cette fiche.

Zone-Telechargement n'héberge aucun fichier. La loi francaise vous autorise à telecharger un fichier seulement si vous en possedez l'original. Ni Zone-Telechargement, ni nos hebergeurs, ni personne ne pourront êtres tenu responsables d'une mauvaise utilisation de ce site.