Zone Telechargement

Dernières actualités du site :

21/10 - Salma's Big Wish New!
22/10 - Superstore Saison 5 Episode 3 New!
21/10 - Salma's Big Wish New!
T-34 machine de guerre
Qualité HDLight 1080p MULTI

T-34 machine de guerre
Télécharger T-34 machine de guerre en HD



Origine du film :Russie
Réalisateur(s) :Alexey Sidorov
Acteur(s) :Alexander Petrov (II), Vinzenz Kiefer, Irina Starshenbaum
Genre :Guerre,
Titre Original :T-34
Note spectateur : - 3.2/5



En 1944, un groupe de soldats russes menés par Nikolai Ivushkin parvient à fuir l'Allemagne à bord d'un tank T-34 à moitié détruit. NFO Show/hide text General Unique ID : 106793896101139583441912255079519103783 (0x5057C198CE8908DA3F1DE3CAA3EC2B27) Complete name : T-34.2018.MULTi.1080p.BluRay.Light.x264.AC3-ACOOL.WwW.Zone-Telechargement.Net.mkv Format : Matroska Format version : Version 4 / Version 2 File size : 2.75 GiB Duration : 1 h 52 min Overall bit rate : 3 498 kb/s Movie name : T-34 machine de guerre Encoded date : UTC 2019-09-24 21:12:41 Writing application : mkvmerge v25.0.0 ('Prog Noir') 64-bit Writing library : libebml v1.3.6 + libmatroska v1.4.9 Video ID : 1 Format : AVC Format/Info : Advanced Video Codec Format profile : [email protected] Format settings : CABAC / 4 Ref Frames Format settings, CABAC : Yes Format settings, ReFrames : 4 frames Codec ID : V_MPEG4/ISO/AVC Duration : 1 h 52 min Bit rate : 2 600 kb/s Width : 1 920 pixels Height : 800 pixels Display aspect ratio : 2.40:1 Frame rate mode : Constant Frame rate : 24.000 FPS Color space : YUV Chroma subsampling : 4:2:0 Bit depth : 8 bits Scan type : Progressive Bits/(Pixel*Frame) : 0.071 Stream size : 2.04 GiB (74%) Writing library : x264 core 155 r2901 7d0ff22 Encoding settings : cabac=1 / ref=1 / deblock=1:0:0 / analyse=0x3:0x113 / me=hex / subme=2 / psy=1 / psy_rd=1.00:0.00 / mixed_ref=0 / me_range=16 / chroma_me=1 / trellis=0 / 8x8dct=1 / cqm=0 / deadzone=21,11 / fast_pskip=1 / chroma_qp_offset=0 / threads=25 / lookahead_threads=6 / sliced_threads=0 / nr=0 / decimate=1 / interlaced=0 / bluray_compat=0 / constrained_intra=0 / bframes=3 / b_pyramid=2 / b_adapt=1 / b_bias=0 / direct=1 / weightb=1 / open_gop=0 / weightp=1 / keyint=240 / keyint_min=24 / scenecut=40 / intra_refresh=0 / rc_lookahead=10 / rc=2pass / mbtree=1 / bitrate=2600 / ratetol=1.0 / qcomp=0.60 / qpmin=0 / qpmax=69 / qpstep=4 / cplxblur=20.0 / qblur=0.5 / vbv_maxrate=62500 / vbv_bufsize=78125 / nal_hrd=none / filler=0 / ip_ratio=1.40 / aq=1:1.00 Default : Yes Forced : No Color range : Limited Color primaries : BT.709 Transfer characteristics : BT.709 Matrix coefficients : BT.709 Audio #1 ID : 2 Format : AC-3 Format/Info : Audio Coding 3 Codec ID : A_AC3 Duration : 1 h 52 min Bit rate mode : Constant Bit rate : 448 kb/s Channel(s) : 6 channels Channel positions : Front: L C R, Side: L R, LFE Sampling rate : 48.0 kHz Frame rate : 31.250 FPS (1536 SPF) Bit depth : 16 bits Compression mode : Lossy Stream size : 361 MiB (13%) Title : French AC3 5.1 448kb/s Language : French Service kind : Complete Main Default : Yes Forced : No Audio #2 ID : 3 Format : AC-3 Format/Info : Audio Coding 3 Codec ID : A_AC3 Duration : 1 h 52 min Bit rate mode : Constant Bit rate : 448 kb/s Channel(s) : 6 channels Channel positions : Front: L C R, Side: L R, LFE Sampling rate : 48.0 kHz Frame rate : 31.250 FPS (1536 SPF) Bit depth : 16 bits Compression mode : Lossy Stream size : 361 MiB (13%) Title : Russian AC3 5.1 448kb/s Language : Russian Service kind : Complete Main Default : No Forced : No Text #1 ID : 4 Format : UTF-8 Codec ID : S_TEXT/UTF8 Codec ID/Info : UTF-8 Plain Text Duration : 1 h 48 min Bit rate : 9 b/s Count of elements : 324 Stream size : 7.56 KiB (0%) Title : FR Forced Language : French Default : Yes Forced : Yes Text #2 ID : 5 Format : UTF-8 Codec ID : S_TEXT/UTF8 Codec ID/Info : UTF-8 Plain Text Duration : 1 h 51 min Bit rate : 31 b/s Count of elements : 1054 Stream size : 26.0 KiB (0%) Title : FULL FR Language : French Default : No Forced : No Menu 00:00:00.000 : :(01)00:00:00:000 00:08:58.500 : :(02)00:08:58:500 00:19:44.458 : :(03)00:19:44:458 00:27:23.417 : :(04)00:27:23:416 00:40:05.208 : :(05)00:40:05:208 00:48:57.167 : :(06)00:48:57:166 00:55:57.000 : :(07)00:55:57:000 01:02:48.667 : :(08)01:02:48:666 01:11:35.125 : :(09)01:11:35:125 01:19:38.750 : :(10)01:19:38:750 01:28:22.542 : :(11)01:28:22:541 01:36:42.667 : :(12)01:36:42:583 01:43:00.250 : :(13)01:43:00:250




Qualité/Format/Langue : HDLight 1080p MULTI






T-34.2018.MULTi.1080p.BluRay.Light.x264.AC3-ACOOL 2,7 Go

Liens De Téléchargement :


3.6
Biopic,Drame,Sport event,
2002-02-27
2.7
Epouvante-horreur,
2019-07-10
Publié : 25-09-2019, 02:52


Commentaires:


Information
Vous devez vous connectez ou vous inscrire pour participer aux commentaires.
Il n'y a pas encore de commentaire sur cette fiche.

Zone-Telechargement n'héberge aucun fichier. La loi francaise vous autorise à telecharger un fichier seulement si vous en possedez l'original. Ni Zone-Telechargement, ni nos hebergeurs, ni personne ne pourront êtres tenu responsables d'une mauvaise utilisation de ce site.