Top Films

A.I. Rising
Qualité HDLight 720p FRENCH

A.I. Rising
Télécharger A.I. Rising en HD







Le cosmonaute Mllutin est envoyé le temps d'une mission sur la station Ederlezi Corporation. Pour l'accompagner en orbite, l'androïde Nimani se joint à lui.NFO Show/hide text General Unique ID : 215458077467286712144324563193126381032 (0xA217B76072C7E98255D10E40D4B6E5E8) Complete name : A.I.Rising.2018.FRENCH.720p.BluRay.Light.x264.AC3-ACOOL.WwW.Zone-Telechargement.Net.mkv Format : Matroska Format version : Version 4 / Version 2 File size : 1.32 GiB Duration : 1 h 26 min Overall bit rate : 2 185 kb/s Movie name : A.I. Rising Encoded date : UTC 2019-09-24 20:46:53 Writing application : mkvmerge v25.0.0 ('Prog Noir') 64-bit Writing library : libebml v1.3.6 + libmatroska v1.4.9 Video ID : 1 Format : AVC Format/Info : Advanced Video Codec Format profile : [email protected] Format settings : CABAC / 4 Ref Frames Format settings, CABAC : Yes Format settings, ReFrames : 4 frames Codec ID : V_MPEG4/ISO/AVC Duration : 1 h 26 min Bit rate : 1 800 kb/s Width : 1 280 pixels Height : 480 pixels Display aspect ratio : 2.667 Frame rate mode : Constant Frame rate : 23.976 (24000/1001) FPS Color space : YUV Chroma subsampling : 4:2:0 Bit depth : 8 bits Scan type : Progressive Bits/(Pixel*Frame) : 0.122 Stream size : 1.09 GiB (82%) Writing library : x264 core 155 r2901 7d0ff22 Encoding settings : cabac=1 / ref=1 / deblock=1:0:0 / analyse=0x3:0x113 / me=hex / subme=2 / psy=1 / psy_rd=1.00:0.00 / mixed_ref=0 / me_range=16 / chroma_me=1 / trellis=0 / 8x8dct=1 / cqm=0 / deadzone=21,11 / fast_pskip=1 / chroma_qp_offset=0 / threads=15 / lookahead_threads=3 / sliced_threads=0 / nr=0 / decimate=1 / interlaced=0 / bluray_compat=0 / constrained_intra=0 / bframes=3 / b_pyramid=2 / b_adapt=1 / b_bias=0 / direct=1 / weightb=1 / open_gop=0 / weightp=1 / keyint=240 / keyint_min=24 / scenecut=40 / intra_refresh=0 / rc_lookahead=10 / rc=2pass / mbtree=1 / bitrate=1800 / ratetol=1.0 / qcomp=0.60 / qpmin=0 / qpmax=69 / qpstep=4 / cplxblur=20.0 / qblur=0.5 / vbv_maxrate=62500 / vbv_bufsize=78125 / nal_hrd=none / filler=0 / ip_ratio=1.40 / aq=1:1.00 Default : Yes Forced : No Color range : Limited Color primaries : BT.709 Transfer characteristics : BT.709 Matrix coefficients : BT.709 Audio ID : 2 Format : AC-3 Format/Info : Audio Coding 3 Codec ID : A_AC3 Duration : 1 h 26 min Bit rate mode : Constant Bit rate : 384 kb/s Channel(s) : 6 channels Channel positions : Front: L C R, Side: L R, LFE Sampling rate : 48.0 kHz Frame rate : 31.250 FPS (1536 SPF) Bit depth : 16 bits Compression mode : Lossy Delay relative to video : 24 ms Stream size : 237 MiB (18%) Title : French AC3 5.1 384kb/s Language : French Service kind : Complete Main Default : Yes Forced : No Text #1 ID : 3 Format : UTF-8 Codec ID : S_TEXT/UTF8 Codec ID/Info : UTF-8 Plain Text Duration : 1 h 11 min Bit rate : 1 b/s Count of elements : 39 Stream size : 847 Bytes (0%) Title : FR Forced Language : French Default : Yes Forced : Yes Text #2 ID : 4 Format : UTF-8 Codec ID : S_TEXT/UTF8 Codec ID/Info : UTF-8 Plain Text Duration : 1 h 18 min Bit rate : 44 b/s Count of elements : 716 Stream size : 25.7 KiB (0%) Title : FULL FR Language : French Default : No Forced : No Menu 00:00:00.000 : :Chapter 01 00:00:13.096 : :Chapter 02 00:08:11.365 : :Chapter 03 00:16:04.171 : :Chapter 04 00:23:44.214 : :Chapter 05 00:31:45.778 : :Chapter 06 00:39:50.513 : :Chapter 07 00:48:04.381 : :Chapter 08 00:54:10.747 : :Chapter 09 01:00:12.609 : :Chapter 10 01:05:46.442 : :Chapter 11 01:14:37.264 : :Chapter 12 01:23:00.141 : :Chapter 13




Qualité/Format/Langue : HDLight 720p FRENCH






A.I.Rising.2018.FRENCH.720p.BluRay.Light.x264.AC3-ACOOL 1,3 Go

Liens De Téléchargement :


3.1
Action,Epouvante-horreur,Comédie,
16 octobre 2019
Documentaire
2019
3.6
Drame,Policier,
2019-06-05
1.6
Fantastique,
1996-07-17
Publié : 25-09-2019, 02:53


Commentaires:


Information
Vous devez vous connectez ou vous inscrire pour participer aux commentaires.
Il n'y a pas encore de commentaire sur cette fiche.

Zone-Telechargement n'héberge aucun fichier. La loi francaise vous autorise à telecharger un fichier seulement si vous en possedez l'original. Ni Zone-Telechargement, ni nos hebergeurs, ni personne ne pourront êtres tenu responsables d'une mauvaise utilisation de ce site.