Zone Telechargement

Dernières actualités du site :

21/11 - Apollo 11 New!
21/11 - Scott Bailey Saison 3 Episode 4 New!
21/11 - Apollo 11 New!
Toy Story 4
Qualité BRRIP VOSTFR

Toy Story 4
Télécharger Toy Story 4 en HD



Origine du film :U.S.A.
Réalisateur(s) :Josh Cooley
Acteur(s) :Jean-Philippe Puymartin, Richard Darbois, Audrey Fleurot
Genre :Animation,Aventure,Famille,
Année de sortie :2019-06-26
Titre Original :Toy Story 4



Woody a toujours privilégié la joie de ses jeunes propriétaires – Andy puis Bonnie – et de ses compagnons, n'hésitant pas à prendre tous les risques pour eux, aussi inconsidérés soient-ils. L'arrivée de Forky un nouveau jouet qui ne veut pas en être un met toute la petite bande en émoi. NFO x264: Show/hide text General Unique ID : 11051854475880960541492592382633839007 (0x850827ED1C622313A98CFD08048099F) Complete name : Toy.Story.4.2019.VOSTFR.BRRip.x264-ACOOL.WwW.Zone-Telechargement.Net.mkv Format : Matroska Format version : Version 4 / Version 2 File size : 618 MiB Duration : 1 h 40 min Overall bit rate : 864 kb/s Movie name : Toy Story 4 Encoded date : UTC 2019-09-26 18:43:28 Writing application : mkvmerge v25.0.0 ('Prog Noir') 64-bit Writing library : libebml v1.3.6 + libmatroska v1.4.9 Video ID : 1 Format : AVC Format/Info : Advanced Video Codec Format profile : [email protected] Format settings : CABAC / 10 Ref Frames Format settings, CABAC : Yes Format settings, ReFrames : 10 frames Codec ID : V_MPEG4/ISO/AVC Duration : 1 h 40 min Bit rate : 747 kb/s Width : 720 pixels Height : 302 pixels Display aspect ratio : 2.40:1 Frame rate mode : Constant Frame rate : 23.976 FPS Color space : YUV Chroma subsampling : 4:2:0 Bit depth : 8 bits Scan type : Progressive Bits/(Pixel*Frame) : 0.143 Stream size : 535 MiB (86%) Writing library : x264 core 158 r2984 3759fcb Encoding settings : cabac=1 / ref=10 / deblock=1:1:1 / analyse=0x3:0x113 / me=umh / subme=8 / psy=1 / psy_rd=0.40:0.00 / mixed_ref=1 / me_range=16 / chroma_me=1 / trellis=2 / 8x8dct=1 / cqm=0 / deadzone=21,11 / fast_pskip=1 / chroma_qp_offset=-2 / threads=9 / lookahead_threads=1 / sliced_threads=0 / nr=0 / decimate=1 / interlaced=0 / bluray_compat=0 / constrained_intra=0 / bframes=5 / b_pyramid=2 / b_adapt=1 / b_bias=0 / direct=3 / weightb=1 / open_gop=0 / weightp=2 / keyint=250 / keyint_min=23 / scenecut=40 / intra_refresh=0 / rc_lookahead=50 / rc=crf / mbtree=1 / crf=19.0 / qcomp=0.60 / qpmin=0 / qpmax=69 / qpstep=4 / ip_ratio=1.40 / aq=1:0.60 Language : English Default : Yes Forced : No Color range : Limited Matrix coefficients : BT.709 Audio ID : 2 Format : AAC Format/Info : Advanced Audio Codec Format profile : LC Codec ID : A_AAC-2 Duration : 1 h 40 min Bit rate : 114 kb/s Channel(s) : 2 channels Channel positions : Front: L R Sampling rate : 48.0 kHz Frame rate : 46.875 FPS (1024 SPF) Compression mode : Lossy Stream size : 81.7 MiB (13%) Title : English AAC 2.0 Language : English Default : Yes Forced : No Text #1 ID : 3 Format : UTF-8 Codec ID : S_TEXT/UTF8 Codec ID/Info : UTF-8 Plain Text Duration : 1 h 39 min Bit rate : 76 b/s Count of elements : 1676 Stream size : 55.7 KiB (0%) Title : FULL FR SRT Language : French Default : Yes Forced : Yes Text #2 ID : 4 Format : ASS Codec ID : S_TEXT/ASS Codec ID/Info : Advanced Sub Station Alpha Duration : 1 h 39 min Bit rate : 127 b/s Count of elements : 1676 Compression mode : Lossless Stream size : 92.5 KiB (0%) Title : FULL FR ASS Language : French Default : No Forced : No Menu 00:00:00.000 : en:00:00:00.000 00:05:39.798 : en:00:05:39.798 00:11:21.097 : en:00:11:21.097 00:15:06.239 : en:00:15:06.239 00:19:01.140 : en:00:19:01.140 00:20:52.042 : en:00:20:52.042 00:22:43.821 : en:00:22:43.821 00:26:11.111 : en:00:26:11.111 00:27:47.082 : en:00:27:47.082 00:32:11.846 : en:00:32:11.846 00:36:17.425 : en:00:36:17.425 00:40:34.640 : en:00:40:34.640 00:42:56.699 : en:00:42:56.699 00:44:26.872 : en:00:44:26.872 00:46:39.380 : en:00:46:39.380 00:48:06.175 : en:00:48:06.175 00:49:18.664 : en:00:49:18.664 00:52:25.809 : en:00:52:25.809 00:53:58.568 : en:00:53:58.568 00:54:34.479 : en:00:54:34.479 00:59:06.960 : en:00:59:06.960 01:01:30.645 : en:01:01:30.645 01:04:40.752 : en:01:04:40.752 01:07:25.249 : en:01:07:25.249 01:09:31.042 : en:01:09:31.042 01:10:54.834 : en:01:10:54.834 01:12:05.154 : en:01:12:05.154 01:15:03.040 : en:01:15:03.040 01:17:29.770 : en:01:17:29.770 01:18:04.846 : en:01:18:04.846 01:19:21.840 : en:01:19:21.840 01:19:48.116 : en:01:19:48.116 01:22:24.940 : en:01:22:24.940 01:29:00.293 : en:01:29:00.293




Qualité/Format/Langue : BRRIP VOSTFR






Toy.Story.4.2019.VOSTFR.BRRip.XviD.AC3-ACOOL 1,4 Go

Liens De Téléchargement :


3.2
Epouvante-horreur,Comédie,
3.1
Action,Epouvante-horreur,Comédie,
16 octobre 2019
2.9
Comédie,Drame,Historique,
1956-09-12
Publié : 27-09-2019, 03:55


Commentaires:


Information
Vous devez vous connectez ou vous inscrire pour participer aux commentaires.
Il n'y a pas encore de commentaire sur cette fiche.

Zone-Telechargement n'héberge aucun fichier. La loi francaise vous autorise à telecharger un fichier seulement si vous en possedez l'original. Ni Zone-Telechargement, ni nos hebergeurs, ni personne ne pourront êtres tenu responsables d'une mauvaise utilisation de ce site.