Zone Telechargement

Dernières actualités du site :

24/10 - Nightmare Cinema New!
23/10 - Arrow Saison 8 Episode 2 New!
23/10 - Benjamin New!
Golden Glove
Qualité Webrip VOSTFR

Golden Glove
Télécharger Golden Glove en HD



Origine du film :Allemagne
Réalisateur(s) :Fatih Akın
Acteur(s) :Jonas Dassler, Margarete Tiesel, Hark Bohm
Genre :Drame,Thriller,
Année de sortie :2019-06-26
Titre Original :Der Goldene Handschuh
Note spectateur : - 2.6/5



Hambourg, années 70. Au premier abord, Fritz Honka, n'est qu'un pitoyable loser. Cet homme à la gueule cassée traîne la nuit dans un bar miteux de son quartier, le « Gant d'or » (« Golden Glove »), à la recherche de femmes seules. Les habitués ne soupçonnent pas que Honka, en apparence inoffensif, est un véritable monstre. Show/hide text General Unique ID : 191543252085979111505852577554110739676 (0x9019E373AC1F3289A949F6AA26E1F4DC) Complete name : The.Golden.Glove.2019.FANSUB.VOSTFR.WEBRip.720p.x264.AC3-LTaTM.WwW.Zone-Telechargement.Net.mkv Format : Matroska Format version : Version 4 / Version 2 File size : 2.00 GiB Duration : 1 h 49 min Overall bit rate : 2 606 kb/s Encoded date : UTC 2019-09-20 20:10:23 Writing application : mkvmerge v9.3.1 ('Mask Machine') 64bit Writing library : libebml v1.3.4 + libmatroska v1.4.5 Video ID : 1 Format : AVC Format/Info : Advanced Video Codec Format profile : [email protected] Format settings : CABAC / 4 Ref Frames Format settings, CABAC : Yes Format settings, ReFrames : 4 frames Codec ID : V_MPEG4/ISO/AVC Duration : 1 h 49 min Bit rate : 2 284 kb/s Width : 1 280 pixels Height : 688 pixels Display aspect ratio : 1.85:1 Frame rate mode : Constant Frame rate : 23.976 (23976/1000) FPS Color space : YUV Chroma subsampling : 4:2:0 Bit depth : 8 bits Scan type : Progressive Bits/(Pixel*Frame) : 0.108 Stream size : 1.75 GiB (88%) Writing library : x264 core 148 r2665 a01e339 Encoding settings : cabac=1 / ref=3 / deblock=1:0:0 / analyse=0x3:0x113 / me=hex / subme=7 / psy=1 / psy_rd=1.00:0.00 / mixed_ref=1 / me_range=16 / chroma_me=1 / trellis=1 / 8x8dct=1 / cqm=0 / deadzone=21,11 / fast_pskip=1 / chroma_qp_offset=-2 / threads=6 / lookahead_threads=1 / sliced_threads=0 / nr=0 / decimate=1 / interlaced=0 / bluray_compat=0 / constrained_intra=0 / bframes=3 / b_pyramid=2 / b_adapt=1 / b_bias=0 / direct=1 / weightb=1 / open_gop=0 / weightp=2 / keyint=250 / keyint_min=23 / scenecut=40 / intra_refresh=0 / rc_lookahead=40 / rc=2pass / mbtree=1 / bitrate=2284 / ratetol=1.0 / qcomp=0.60 / qpmin=0 / qpmax=69 / qpstep=4 / cplxblur=20.0 / qblur=0.5 / ip_ratio=1.40 / aq=1:1.00 Default : Yes Forced : No Audio ID : 2 Format : AC-3 Format/Info : Audio Coding 3 Codec ID : A_AC3 Duration : 1 h 49 min Bit rate mode : Constant Bit rate : 320 kb/s Channel(s) : 2 channels Channel positions : Front: L R Sampling rate : 48.0 kHz Frame rate : 31.250 FPS (1536 SPF) Bit depth : 16 bits Compression mode : Lossy Stream size : 252 MiB (12%) Service kind : Complete Main Default : Yes Forced : No




Qualité/Format/Langue : Webrip VOSTFR






The.Golden.Glove.2019.FANSUB.VOSTFR.WEBRip.720p.x264.AC3-LTaTM 2,0 Go

Liens De Téléchargement :


3.3
Epouvante-horreur,
2019-07-31
3.4
Comédie dramatique,Aventure,
2.7
Drame,
2015-10-07
2.2
Romance,Biopic,
2016-08-31
Publié : 29-09-2019, 17:50


Commentaires:


Information
Vous devez vous connectez ou vous inscrire pour participer aux commentaires.
Il n'y a pas encore de commentaire sur cette fiche.

Zone-Telechargement n'héberge aucun fichier. La loi francaise vous autorise à telecharger un fichier seulement si vous en possedez l'original. Ni Zone-Telechargement, ni nos hebergeurs, ni personne ne pourront êtres tenu responsables d'une mauvaise utilisation de ce site.