Zone Telechargement

Dernières actualités du site :

21/10 - Salma's Big Wish New!
22/10 - Superstore Saison 5 Episode 3 New!
21/10 - Salma's Big Wish New!
Stuber
Qualité HDLight 1080p MULTI

Stuber
Télécharger Stuber en HD







Un inspecteur de police à la poursuite d'un assassin engage Stu, un gentil chauffeur Uber, pour une nuit entière.NFO Show/hide text General Unique ID : 51597842028934882592231321830094787378 (0x26D16205ED24B6662A9339C1F817D332) Complete name : Stuber.2019.MULTi.TRUEFRENCH.1080p.BluRay.Light.x264.AC3-ACOOL.WwW.Zone-Telechargement.Net.mkv Format : Matroska Format version : Version 4 / Version 2 File size : 2.41 GiB Duration : 1 h 33 min Overall bit rate : 3 697 kb/s Movie name : Stuber Encoded date : UTC 2019-10-05 22:40:09 Writing application : mkvmerge v25.0.0 ('Prog Noir') 64-bit Writing library : libebml v1.3.6 + libmatroska v1.4.9 Video ID : 1 Format : AVC Format/Info : Advanced Video Codec Format profile : [email protected] Format settings : CABAC / 4 Ref Frames Format settings, CABAC : Yes Format settings, ReFrames : 4 frames Codec ID : V_MPEG4/ISO/AVC Duration : 1 h 33 min Bit rate : 2 800 kb/s Width : 1 920 pixels Height : 808 pixels Display aspect ratio : 2.40:1 Original display aspect rat : 2.40:1 Frame rate mode : Constant Frame rate : 23.976 (24000/1001) FPS Color space : YUV Chroma subsampling : 4:2:0 Bit depth : 8 bits Scan type : Progressive Bits/(Pixel*Frame) : 0.075 Stream size : 1.83 GiB (76%) Writing library : x264 core 155 r2901 7d0ff22 Encoding settings : cabac=1 / ref=1 / deblock=1:0:0 / analyse=0x3:0x113 / me=hex / subme=2 / psy=1 / psy_rd=1.00:0.00 / mixed_ref=0 / me_range=16 / chroma_me=1 / trellis=0 / 8x8dct=1 / cqm=0 / deadzone=21,11 / fast_pskip=1 / chroma_qp_offset=0 / threads=25 / lookahead_threads=6 / sliced_threads=0 / nr=0 / decimate=1 / interlaced=0 / bluray_compat=0 / constrained_intra=0 / bframes=3 / b_pyramid=2 / b_adapt=1 / b_bias=0 / direct=1 / weightb=1 / open_gop=0 / weightp=1 / keyint=240 / keyint_min=24 / scenecut=40 / intra_refresh=0 / rc_lookahead=10 / rc=2pass / mbtree=1 / bitrate=2800 / ratetol=1.0 / qcomp=0.60 / qpmin=0 / qpmax=69 / qpstep=4 / cplxblur=20.0 / qblur=0.5 / vbv_maxrate=62500 / vbv_bufsize=78125 / nal_hrd=none / filler=0 / ip_ratio=1.40 / aq=1:1.00 Default : Yes Forced : No Color range : Limited Color primaries : BT.709 Transfer characteristics : BT.709 Matrix coefficients : BT.709 Audio #1 ID : 2 Format : AC-3 Format/Info : Audio Coding 3 Codec ID : A_AC3 Duration : 1 h 33 min Bit rate mode : Constant Bit rate : 448 kb/s Channel(s) : 6 channels Channel positions : Front: L C R, Side: L R, LFE Sampling rate : 48.0 kHz Frame rate : 31.250 FPS (1536 SPF) Bit depth : 16 bits Compression mode : Lossy Stream size : 299 MiB (12%) Title : VFF AC3 5.1 448kb/s Language : French Service kind : Complete Main Default : Yes Forced : No Audio #2 ID : 3 Format : AC-3 Format/Info : Audio Coding 3 Codec ID : A_AC3 Duration : 1 h 33 min Bit rate mode : Constant Bit rate : 448 kb/s Channel(s) : 6 channels Channel positions : Front: L C R, Side: L R, LFE Sampling rate : 48.0 kHz Frame rate : 31.250 FPS (1536 SPF) Bit depth : 16 bits Compression mode : Lossy Stream size : 299 MiB (12%) Title : English AC3 5.1 448kb/s Language : English Service kind : Complete Main Default : No Forced : No Text #1 ID : 4 Format : UTF-8 Codec ID : S_TEXT/UTF8 Codec ID/Info : UTF-8 Plain Text Duration : 1 h 27 min Bit rate : 1 b/s Count of elements : 28 Stream size : 875 Bytes (0%) Title : FR Forced Language : French Default : Yes Forced : Yes Text #2 ID : 5 Format : UTF-8 Codec ID : S_TEXT/UTF8 Codec ID/Info : UTF-8 Plain Text Duration : 1 h 32 min Bit rate : 77 b/s Count of elements : 1826 Stream size : 52.5 KiB (0%) Title : FULL FR Language : French Default : No Forced : No Menu 00:00:00.000 : en:00:00:00.000 00:05:52.435 : en:00:05:52.435 00:09:57.222 : en:00:09:57.222 00:14:14.854 : en:00:14:14.854 00:17:30.675 : en:00:17:30.675 00:19:46.310 : en:00:19:46.310 00:22:40.276 : en:00:22:40.276 00:27:33.402 : en:00:27:33.402 00:31:30.889 : en:00:31:30.889 00:33:19.247 : en:00:33:19.247 00:35:39.888 : en:00:35:39.888 00:40:13.036 : en:00:40:13.036 00:45:05.202 : en:00:45:05.202 00:49:10.114 : en:00:49:10.114 00:52:36.987 : en:00:52:36.987 00:56:46.111 : en:00:56:46.111 01:01:54.252 : en:01:01:54.252 01:05:43.648 : en:01:05:43.648 01:08:37.196 : en:01:08:37.196 01:13:31.157 : en:01:13:31.157 01:16:44.517 : en:01:16:44.517 01:19:07.534 : en:01:19:07.534 01:23:54.780 : en:01:23:54.780 01:27:49.598 : en:01:27:49.598




Qualité/Format/Langue : HDLight 1080p MULTI






Stuber.2019.MULTi.TRUEFRENCH.1080p.BluRay.Light.x264.AC3-ACOOL 2,4 Go

Liens De Téléchargement :


3.6
Biopic,Drame,Sport event,
2002-02-27
2.7
Epouvante-horreur,
2019-07-10
Publié : 6-10-2019, 03:59


Commentaires:


Information
Vous devez vous connectez ou vous inscrire pour participer aux commentaires.
Il n'y a pas encore de commentaire sur cette fiche.

Zone-Telechargement n'héberge aucun fichier. La loi francaise vous autorise à telecharger un fichier seulement si vous en possedez l'original. Ni Zone-Telechargement, ni nos hebergeurs, ni personne ne pourront êtres tenu responsables d'une mauvaise utilisation de ce site.