Zone Telechargement

Dernières actualités du site :

21/10 - Salma's Big Wish New!
22/10 - Superstore Saison 5 Episode 3 New!
21/10 - Salma's Big Wish New!
Midsommar
Qualité WEB-DL 1080p FRENCH

Midsommar
Télécharger Midsommar en HD




Note spectateur : - 3.3/5



Dani et Christian sont sur le point de se séparer quand la famille de Dani est touchée par une tragédie. Attristé par le deuil de la jeune femme, Christian ne peut se résoudre à la laisser seule et l'emmène avec lui et ses amis à un festival estival qui n'a lieu qu'une fois tous les 90 ans et se déroule dans un village suédois isolé.NFO Show/hide text General Unique ID : 7049618596131351009077374957690356332 (0x54DB5081D85255C64161BF85689026C) Complete name : Midsommar.2019.FRENCH.1080p.WEB-DL.DD5.1.H264-UNiKORN.WwW.Zone-Telechargement.Net.mkv Format : Matroska Format version : Version 4 / Version 2 File size : 5.64 GiB Duration : 2 h 27 min Overall bit rate : 5 476 kb/s Encoded date : UTC 2019-10-06 12:26:36 Writing application : mkvmerge v25.0.0 ('Prog Noir') 64-bit Writing library : libebml v1.3.6 + libmatroska v1.4.9 Video ID : 1 Format : AVC Format/Info : Advanced Video Codec Format profile : [email protected] Format settings : CABAC / 4 Ref Frames Format settings, CABAC : Yes Format settings, ReFrames : 4 frames Codec ID : V_MPEG4/ISO/AVC Duration : 2 h 27 min Bit rate : 4 964 kb/s Width : 1 920 pixels Height : 952 pixels Display aspect ratio : 2.017 Frame rate mode : Constant Frame rate : 23.976 FPS Color space : YUV Chroma subsampling : 4:2:0 Bit depth : 8 bits Scan type : Progressive Bits/(Pixel*Frame) : 0.113 Stream size : 5.11 GiB (91%) Language : English Default : Yes Forced : No Color range : Limited Color primaries : BT.709 Transfer characteristics : BT.709 Matrix coefficients : BT.709 Audio #1 ID : 2 Format : AC-3 Format/Info : Audio Coding 3 Codec ID : A_AC3 Duration : 2 h 27 min Bit rate mode : Constant Bit rate : 384 kb/s Channel(s) : 6 channels Channel positions : Front: L C R, Side: L R, LFE Sampling rate : 48.0 kHz Frame rate : 31.250 FPS (1536 SPF) Bit depth : 16 bits Compression mode : Lossy Delay relative to video : -42 ms Stream size : 405 MiB (7%) Language : French Service kind : Complete Main Default : Yes Forced : No Audio #2 ID : 3 Format : AAC Format/Info : Advanced Audio Codec Format profile : LC Codec ID : A_AAC-2 Duration : 2 h 27 min Bit rate : 125 kb/s Channel(s) : 2 channels Channel positions : Front: L R Sampling rate : 48.0 kHz Frame rate : 46.875 FPS (1024 SPF) Compression mode : Lossy Delay relative to video : -42 ms Stream size : 132 MiB (2%) Language : French Default : No Forced : No Text ID : 4 Format : UTF-8 Codec ID : S_TEXT/UTF8 Codec ID/Info : UTF-8 Plain Text Duration : 2 h 11 min Bit rate : 2 b/s Count of elements : 52 Stream size : 1.97 KiB (0%) Title : Forced Language : French Default : Yes Forced : Yes Menu 00:00:00.000 : en:1 00:09:07.000 : en:2 00:15:10.000 : en:3 00:23:14.000 : en:4 00:29:07.000 : en:5 00:34:28.000 : en:6 00:40:35.000 : en:7 00:46:18.000 : en:8 00:52:33.000 : en:9 00:58:16.000 : en:10 01:04:25.000 : en:11 01:10:15.000 : en:12 01:16:33.000 : en:13 01:23:56.000 : en:14 01:30:43.000 : en:15 01:36:30.000 : en:16 01:41:51.000 : en:17 01:46:56.000 : en:18 01:53:06.000 : en:19 01:59:06.000 : en:20 02:04:53.000 : en:21 02:12:29.000 : en:22 02:19:03.000 : en:23 02:22:58.000 : en:24




Qualité/Format/Langue : WEB-DL 1080p FRENCH






Midsommar.2019.FRENCH.1080p.WEB-DL.DD5.1.H264-UNiKORN 5,6 Go

Liens De Téléchargement :


3.6
Biopic,Drame,Sport event,
2002-02-27
2.7
Epouvante-horreur,
2019-07-10
Publié : 6-10-2019, 16:56


Commentaires:


Information
Vous devez vous connectez ou vous inscrire pour participer aux commentaires.
Il n'y a pas encore de commentaire sur cette fiche.

Zone-Telechargement n'héberge aucun fichier. La loi francaise vous autorise à telecharger un fichier seulement si vous en possedez l'original. Ni Zone-Telechargement, ni nos hebergeurs, ni personne ne pourront êtres tenu responsables d'une mauvaise utilisation de ce site.