Stubby
Qualité HDLight 720p FRENCH

Stubby
Télécharger Stubby en HD



Origine du film :U.S.A.
Réalisateur(s) :Richard Lanni
Acteur(s) :Helena Bonham Carter, Logan Lerman, Gérard Depardieu
Genre :Animation,
Année de sortie :2019-05-22
Titre Original :Sgt. Stubby: An American Hero
Note spectateur : - 3.7/5



Le destin incroyable de Stubby, chien errant recueilli par John R. Conroy sur le campus de Yale où le soldat s'entraînait avec les troupes US avant de rejoindre les alliés lors de la Grande Guerre. John embarque clandestinement son protégé sur l'USS Minnesota, et les voilà voguant vers la France pour participer au combat. NFO Show/hide text General Unique ID : 143735157833768041287311320292076628222 (0x6C22626B88865CDFF27BE3A2755528FE) Complete name : Sgt.Stubby.An.American.Hero.2018.FRENCH.720p.BluRay.Light.x264.AC3-ACOOL.WwW.Zone-Telechargement.Net.mkv Format : Matroska Format version : Version 4 / Version 2 File size : 1.17 GiB Duration : 1 h 24 min Overall bit rate : 1 983 kb/s Movie name : Stubby Encoded date : UTC 2019-10-09 21:03:36 Writing application : mkvmerge v25.0.0 ('Prog Noir') 64-bit Writing library : libebml v1.3.6 + libmatroska v1.4.9 Video ID : 1 Format : AVC Format/Info : Advanced Video Codec Format profile : [email protected] Format settings : CABAC / 4 Ref Frames Format settings, CABAC : Yes Format settings, ReFrames : 4 frames Codec ID : V_MPEG4/ISO/AVC Duration : 1 h 24 min Bit rate : 1 600 kb/s Width : 1 280 pixels Height : 688 pixels Display aspect ratio : 1.85:1 Frame rate mode : Constant Frame rate : 23.976 (24000/1001) FPS Color space : YUV Chroma subsampling : 4:2:0 Bit depth : 8 bits Scan type : Progressive Bits/(Pixel*Frame) : 0.076 Stream size : 966 MiB (81%) Writing library : x264 core 155 r2901 7d0ff22 Encoding settings : cabac=1 / ref=1 / deblock=1:0:0 / analyse=0x3:0x113 / me=hex / subme=2 / psy=1 / psy_rd=1.00:0.00 / mixed_ref=0 / me_range=16 / chroma_me=1 / trellis=0 / 8x8dct=1 / cqm=0 / deadzone=21,11 / fast_pskip=1 / chroma_qp_offset=0 / threads=21 / lookahead_threads=5 / sliced_threads=0 / nr=0 / decimate=1 / interlaced=0 / bluray_compat=0 / constrained_intra=0 / bframes=3 / b_pyramid=2 / b_adapt=1 / b_bias=0 / direct=1 / weightb=1 / open_gop=0 / weightp=1 / keyint=240 / keyint_min=24 / scenecut=40 / intra_refresh=0 / rc_lookahead=10 / rc=2pass / mbtree=1 / bitrate=1600 / ratetol=1.0 / qcomp=0.60 / qpmin=0 / qpmax=69 / qpstep=4 / cplxblur=20.0 / qblur=0.5 / vbv_maxrate=62500 / vbv_bufsize=78125 / nal_hrd=none / filler=0 / ip_ratio=1.40 / aq=1:1.00 Default : Yes Forced : No Color range : Limited Color primaries : BT.709 Transfer characteristics : BT.709 Matrix coefficients : BT.709 Audio ID : 2 Format : AC-3 Format/Info : Audio Coding 3 Codec ID : A_AC3 Duration : 1 h 24 min Bit rate mode : Constant Bit rate : 384 kb/s Channel(s) : 6 channels Channel positions : Front: L C R, Side: L R, LFE Sampling rate : 48.0 kHz Frame rate : 31.250 FPS (1536 SPF) Bit depth : 16 bits Compression mode : Lossy Delay relative to video : 24 ms Stream size : 232 MiB (19%) Title : French AC3 5.1 384kb/s Language : French Service kind : Complete Main Default : Yes Forced : No Text ID : 3 Format : UTF-8 Codec ID : S_TEXT/UTF8 Codec ID/Info : UTF-8 Plain Text Duration : 1 h 23 min Bit rate : 39 b/s Count of elements : 829 Stream size : 24.5 KiB (0%) Title : FULL FR Language : French Default : No Forced : No Menu 00:00:00.000 : en:Chapter 01 00:03:45.308 : en:Chapter 02 00:07:30.951 : en:Chapter 03 00:10:39.514 : en:Chapter 04 00:12:15.109 : en:Chapter 05 00:14:34.207 : en:Chapter 06 00:15:55.371 : en:Chapter 07 00:18:49.170 : en:Chapter 08 00:20:47.580 : en:Chapter 09 00:22:40.192 : en:Chapter 10 00:24:16.163 : en:Chapter 11 00:26:37.096 : en:Chapter 12 00:28:19.448 : en:Chapter 13 00:33:44.356 : en:Chapter 14 00:39:48.803 : en:Chapter 15 00:44:43.347 : en:Chapter 16 00:46:31.664 : en:Chapter 17 00:48:41.293 : en:Chapter 18 00:54:26.430 : en:Chapter 19 00:57:13.597 : en:Chapter 20 01:01:38.278 : en:Chapter 21 01:03:10.495 : en:Chapter 22 01:05:59.456 : en:Chapter 23 01:07:13.446 : en:Chapter 24 01:08:19.596 : en:Chapter 25 01:09:34.837 : en:Chapter 26 01:10:19.966 : en:Chapter 27 01:11:23.821 : en:Chapter 28 01:15:26.480 : en:Chapter 29 01:17:51.000 : en:Chapter 30




Qualité/Format/Langue : HDLight 720p FRENCH






Sgt.Stubby.An.American.Hero.2018.FRENCH.720p.BluRay.Light.x264.AC3-ACOOL 1,2 Go

Liens De Téléchargement :


3.2
Comédie,Policier,Aventure,
1964-11-04
2.3
Thriller,Epouvante-horreur,
2019-06-05
3.5
Policier,
1975-10
Publié : 10-10-2019, 03:37


Commentaires:


Information
Vous devez vous connectez ou vous inscrire pour participer aux commentaires.
Il n'y a pas encore de commentaire sur cette fiche.

Zone-Telechargement n'héberge aucun fichier. La loi francaise vous autorise à telecharger un fichier seulement si vous en possedez l'original. Ni Zone-Telechargement, ni nos hebergeurs, ni personne ne pourront êtres tenu responsables d'une mauvaise utilisation de ce site.