Zone Telechargement

Dernières actualités du site :

29/01 - Baishe: Yuanqi New!
03/12 - NCIS : Nouvelle-Orléans Saison 5 Episode 15 New!
29/01 - Baishe: Yuanqi New!

Top Films


Downton Abbey
Qualité HDLight 1080p MULTI

Downton Abbey
Télécharger Downton Abbey en HD



Origine du film :Grande-Bretagne
Réalisateur(s) :Michael Engler
Acteur(s) :Michelle Dockery, Hugh Bonneville, Maggie Smith
Genre :Drame,Historique,
Année de sortie :2019-09-25
Titre Original :Downton Abbey
Note spectateur : - 4/5



Les Crawley et leur personnel intrépide se préparent à vivre l'événement le plus important de leur vie : une visite du roi et de la reine d'Angleterre. Cette venue ne tardera pas à déclencher scandales, intrigues amoureuses et manigances qui pèseront sur l'avenir même de Downton. Show/hide text Downton.Abbey.2019.MULTi.1080p.HDLight.AC3.x264-RDH.WwW.Zone-Telechargement.NET.mkv Format : Matroska Format version : Version 4 File size : 3.31 GiB Duration : 2 h 1 min Overall bit rate : 3 897 kb/s Encoded date : UTC 2019-12-07 02:54:42 Writing application : mkvmerge v29.0.0 ('Like It Or Not') 32-bit Writing library : libebml v1.3.6 + libmatroska v1.4.9 / Lavf58.29.100 Video ID : 1 Format : AVC Format/Info : Advanced Video Codec Format profile : [email protected] Format settings : CABAC / 4 Ref Frames Format settings, CABAC : Yes Format settings, ReFrames : 4 frames Codec ID : V_MPEG4/ISO/AVC Duration : 2 h 1 min Bit rate : 3 000 kb/s Width : 1 920 pixels Height : 804 pixels Display aspect ratio : 2.40:1 Frame rate mode : Constant Frame rate : 23.976 (24000/1001) FPS Color space : YUV Chroma subsampling : 4:2:0 Bit depth : 8 bits Scan type : Progressive Bits/(Pixel*Frame) : 0.081 Stream size : 2.55 GiB (77%) Writing library : x264 core 157 r2935 545de2f Encoding settings : cabac=1 / ref=2 / deblock=1:0:0 / analyse=0x1:0x111 / me=hex / subme=6 / psy=1 / psy_rd=1.00:0.00 / mixed_ref=1 / me_range=16 / chroma_me=1 / trellis=1 / 8x8dct=0 / cqm=0 / deadzone=21,11 / fast_pskip=1 / chroma_qp_offset=-2 / threads=25 / lookahead_threads=4 / sliced_threads=0 / nr=0 / decimate=1 / interlaced=0 / bluray_compat=0 / constrained_intra=0 / bframes=3 / b_pyramid=2 / b_adapt=1 / b_bias=0 / direct=1 / weightb=1 / open_gop=0 / weightp=1 / keyint=240 / keyint_min=24 / scenecut=40 / intra_refresh=0 / rc_lookahead=30 / rc=2pass / mbtree=1 / bitrate=3000 / ratetol=1.0 / qcomp=0.60 / qpmin=0 / qpmax=69 / qpstep=4 / cplxblur=20.0 / qblur=0.5 / vbv_maxrate=20000 / vbv_bufsize=25000 / nal_hrd=none / filler=0 / ip_ratio=1.40 / aq=1:1.00 Default : Yes Forced : No Color range : Limited Color primaries : BT.709 Transfer characteristics : BT.709 Matrix coefficients : BT.709 Audio #1 ID : 2 Format : AC-3 Format/Info : Audio Coding 3 Commercial name : Dolby Digital Codec ID : A_AC3 Duration : 2 h 1 min Bit rate mode : Constant Bit rate : 448 kb/s Channel(s) : 6 channels Channel layout : L R C LFE Ls Rs Sampling rate : 48.0 kHz Frame rate : 31.250 FPS (1536 SPF) Bit depth : 16 bits Compression mode : Lossy Delay relative to video : -5 ms Stream size : 390 MiB (11%) Language : French Service kind : Complete Main Default : Yes Forced : No Audio #2 ID : 3 Format : AC-3 Format/Info : Audio Coding 3 Commercial name : Dolby Digital Codec ID : A_AC3 Duration : 2 h 1 min Bit rate mode : Constant Bit rate : 448 kb/s Channel(s) : 6 channels Channel layout : L R C LFE Ls Rs Sampling rate : 48.0 kHz Frame rate : 31.250 FPS (1536 SPF) Bit depth : 16 bits Compression mode : Lossy Delay relative to video : -5 ms Stream size : 390 MiB (11%) Language : English Service kind : Complete Main Default : No Forced : No Text #1 ID : 4 Format : UTF-8 Codec ID : S_TEXT/UTF8 Codec ID/Info : UTF-8 Plain Text Duration : 2 h 1 min Bit rate : 0 b/s Count of elements : 9 Stream size : 229 Bytes (0%) Title : FORCED Language : French Default : Yes Forced : Yes Text #2 ID : 5 Format : UTF-8 Codec ID : S_TEXT/UTF8 Codec ID/Info : UTF-8 Plain Text Duration : 2 h 1 min Bit rate : 80 b/s Count of elements : 1924 Stream size : 71.5 KiB (0%) Title : FULL Language : French Default : No Forced : No Menu 00:00:00.000 : :00:00:00.000 00:05:50.809 : :00:05:50.809 00:12:40.510 : :00:12:40.510 00:18:52.548 : :00:18:52.548 00:25:24.481 : :00:25:24.481 00:33:22.667 : :00:33:22.667 00:39:29.242 : :00:39:29.158 00:43:48.000 : :00:43:47.959 00:49:58.662 : :00:49:58.662 00:57:52.844 : :00:57:52.678 01:03:34.561 : :01:03:34.561 01:10:31.310 : :01:10:31.227 01:17:20.136 : :01:17:20.135 01:23:27.711 : :01:23:27.711 01:28:51.618 : :01:28:51.618 01:34:25.827 : :01:34:25.827 01:37:59.040 : :01:37:59.040 01:43:29.787 : :01:43:29.787 01:51:52.080 : :01:51:52.080 01:56:59.721 : :01:56:59.679




Qualité/Format/Langue : HDLight 1080p MULTI






3,3 Go

Liens De Téléchargement :


1.7
Comédie,
2019-04-10
Science fiction,
3.9
Aventure,Drame,Comédie,
2018-05-30
2.4
Animation,
2019-12-04
Publié : 7-12-2019, 09:42


Commentaires:


Information
Vous devez vous connectez ou vous inscrire pour participer aux commentaires.
Il n'y a pas encore de commentaire sur cette fiche.

Zone-Telechargement n'héberge aucun fichier. La loi francaise vous autorise à telecharger un fichier seulement si vous en possedez l'original. Ni Zone-Telechargement, ni nos hebergeurs, ni personne ne pourront êtres tenu responsables d'une mauvaise utilisation de ce site.