Zone Telechargement

Dernières actualités du site :

17/01 - Adoration New!
03/12 - NCIS : Nouvelle-Orléans Saison 5 Episode 15 New!
17/01 - Adoration New!
Dora et la Cité perdue
Qualité HDLight 720p TRUEFRENCH

Dora et la Cité perdue
Télécharger Dora et la Cité perdue en HD



Origine du film :U.S.A.
Réalisateur(s) :James Bobin
Acteur(s) :Isabela Merced, Michael Peña, Eva Longoria
Genre :Famille,Aventure,
Année de sortie :2019-08-14
Titre Original :Dora and the Lost City of Gold
Note spectateur : - 2.9/5



Après des années à explorer la jungle avec ses parents, Dora se prépare à vivre l'épreuve la plus difficile de sa vie : l'entrée au lycée ! Son âme d'exploratrice ressurgit quand elle doit voler à la rescousse de ses parents en danger. Accompagnée de son fidèle singe Babouche, de son cousin Diego et de nouveaux amis hauts en couleur, Dora embarque dans une folle aventure qui l'amènera à percer le mystère de la Cité d'or perdue. Show/hide text Dora.and.the.Lost.City.of.Gold.2019.TRUEFRENCH.720p.HDLight.AC3.x264-RDH.WwW.Zone-Telechargement.NET.mkv Format : Matroska Format version : Version 4 File size : 1.75 GiB Duration : 1 h 42 min Overall bit rate : 2 449 kb/s Encoded date : UTC 2019-12-07 10:19:57 Writing application : mkvmerge v29.0.0 ('Like It Or Not') 32-bit Writing library : libebml v1.3.6 + libmatroska v1.4.9 / Lavf58.29.100 Video ID : 1 Format : AVC Format/Info : Advanced Video Codec Format profile : [email protected] Format settings : CABAC / 4 Ref Frames Format settings, CABAC : Yes Format settings, ReFrames : 4 frames Codec ID : V_MPEG4/ISO/AVC Duration : 1 h 42 min Bit rate : 2 000 kb/s Width : 1 280 pixels Height : 536 pixels Display aspect ratio : 2.40:1 Frame rate mode : Constant Frame rate : 23.976 (24000/1001) FPS Color space : YUV Chroma subsampling : 4:2:0 Bit depth : 8 bits Scan type : Progressive Bits/(Pixel*Frame) : 0.122 Stream size : 1.43 GiB (82%) Writing library : x264 core 157 r2935 545de2f Encoding settings : cabac=1 / ref=2 / deblock=1:0:0 / analyse=0x1:0x111 / me=hex / subme=6 / psy=1 / psy_rd=1.00:0.00 / mixed_ref=1 / me_range=16 / chroma_me=1 / trellis=1 / 8x8dct=0 / cqm=0 / deadzone=21,11 / fast_pskip=1 / chroma_qp_offset=-2 / threads=17 / lookahead_threads=2 / sliced_threads=0 / nr=0 / decimate=1 / interlaced=0 / bluray_compat=0 / constrained_intra=0 / bframes=3 / b_pyramid=2 / b_adapt=1 / b_bias=0 / direct=1 / weightb=1 / open_gop=0 / weightp=1 / keyint=240 / keyint_min=24 / scenecut=40 / intra_refresh=0 / rc_lookahead=30 / rc=2pass / mbtree=1 / bitrate=2000 / ratetol=1.0 / qcomp=0.60 / qpmin=0 / qpmax=69 / qpstep=4 / cplxblur=20.0 / qblur=0.5 / vbv_maxrate=14000 / vbv_bufsize=14000 / nal_hrd=none / filler=0 / ip_ratio=1.40 / aq=1:1.00 Default : Yes Forced : No Color range : Limited Color primaries : BT.709 Transfer characteristics : BT.709 Matrix coefficients : BT.709 Audio ID : 2 Format : AC-3 Format/Info : Audio Coding 3 Commercial name : Dolby Digital Codec ID : A_AC3 Duration : 1 h 42 min Bit rate mode : Constant Bit rate : 448 kb/s Channel(s) : 6 channels Channel layout : L R C LFE Ls Rs Sampling rate : 48.0 kHz Frame rate : 31.250 FPS (1536 SPF) Bit depth : 16 bits Compression mode : Lossy Delay relative to video : -5 ms Stream size : 328 MiB (18%) Language : French Service kind : Complete Main Default : Yes Forced : No Text ID : 3 Format : UTF-8 Codec ID : S_TEXT/UTF8 Codec ID/Info : UTF-8 Plain Text Duration : 1 h 40 min Bit rate : 1 b/s Count of elements : 31 Stream size : 819 Bytes (0%) Title : FORCED Language : French Default : Yes Forced : Yes Menu 00:00:00.000 : :00:00:00.000 00:04:52.417 : :00:04:52.417 00:09:49.089 : :00:09:49.088 00:15:35.643 : :00:15:35.643 00:20:26.767 : :00:20:26.767 00:25:47.838 : :00:25:47.838 00:35:15.780 : :00:35:15.780 00:42:53.738 : :00:42:53.738 00:47:13.664 : :00:47:13.664 00:52:57.883 : :00:52:57.883 00:55:41.463 : :00:55:41.463 01:01:02.659 : :01:01:02.659 01:06:11.426 : :01:06:11.301 01:10:23.136 : :01:10:23.136 01:13:52.136 : :01:13:52.136 01:18:26.327 : :01:18:26.327 01:22:39.496 : :01:22:39.496 01:32:57.363 : :01:32:57.322 01:38:30.279 : :01:38:30.238




Qualité/Format/Langue : HDLight 720p TRUEFRENCH






Dora.and.the.Lost.City.of.Gold.2019.TRUEFRENCH.720p.HDLight.AC3.x264-RDH 1,7 Go

Liens De Téléchargement :


3.3
Thriller,Drame,
2019-07-24
2.4
Animation,
2019-12-04
4
Fantastique,Aventure,
2019-10-16
3.9
Aventure,Drame,Comédie,
2018-05-30
Publié : 7-12-2019, 16:09


Commentaires:


Information
Vous devez vous connectez ou vous inscrire pour participer aux commentaires.
Il n'y a pas encore de commentaire sur cette fiche.

Zone-Telechargement n'héberge aucun fichier. La loi francaise vous autorise à telecharger un fichier seulement si vous en possedez l'original. Ni Zone-Telechargement, ni nos hebergeurs, ni personne ne pourront êtres tenu responsables d'une mauvaise utilisation de ce site.